Звезда ЛорыLauras Stern Страна: Германия
Жанр: мультфильм, семейный
Продолжительность: 01:17:34
Год выпуска: 2004
Перевод:
- Профессиональный (двухголосый закадровый)
- Авторский (одноголосый закадровый) - Гранкин
Русские субтитры: есть-Режиссёр: Пит Де Рикер / Piet De Rycker, Тило Роткирч / Thilo Rothkirch
-Роли озвучивали: Селине Фогт, Сандро Янотта, Максимилиан Артахо, Брит Гюлланд, Генрих Шафмейстер, Мирко Нончев, Мартин Райнль, Ева Маттес, Петер Фиц, Могенс фон Гадов-Описание: Однажды вечером Лора смотрела в окно. Вдруг она увидела, как с неба упала звезда! Девочка поднимает звезду и знакомится с ней. Но скоро звезда начнет скучать по дому… Тогда Лора и ее брат Томми решают помочь звезде вернуться на небо…-За запись многоголосого перевода с онлайн-трансляции 31 канала (Казахстан) спасибо Егор Осипов. Качество звука весьма посредственное.
За рип, а также за шестиканальную немецкую и английскую дорожку спасибо grandmajor
При записи многоголоски произошёл глюк на 00:34:32-00:35:01, на этот отрывок вставлен одноголосый перевод Гранкина.
-Семпл: http://sendfile.su/1299047
-Качество: DVDRip
Формат: AVI
Видео: XviD, 704x384, 25 fps, ~2110 kbps, 0.312 bit/pixel
Аудио #1: [RUS] 48 kHz, AC3 Dolby Digital, 1 ch, ~192 kbps kbps avg - MVO (31 канал)
Аудио #2: [DEU] 48 kHz, AC3 Dolby Digital, 5.1 ch, ~384 kbps kbps avg
Аудио #3: [RUS] 48 kHz, AC3 Dolby Digital, 2 ch, ~192 kbps kbps avg - AVO (Гранкин) (отдельно)
Аудио #4: [ENG] 48 kHz, AC3 Dolby Digital, 5.1 ch, ~384 kbps kbps avg (отдельно)
Субтитры: русские

Mediainfo

Общее
Полное имя : J:\Lauras_Stern (2004)\Lauras_Stern.avi
Формат : AVI
Формат/Информация : Audio Video Interleave
Размер файла : 1,46 Гбайт
Продолжительность : 1 ч. 17 м.
Общий поток : 2701 Кбит/сек
Программа кодирования : VirtualDubMod 1.5.10.2 (build 2540/release)
Библиотека кодирования : VirtualDubMod build 2540/release
Видео
Идентификатор : 0
Формат : MPEG-4 Visual
Профиль формата : Advanced Simple@L5
Параметр BVOP формата : 2
Параметр QPel формата : Нет
Параметр GMC формата : Без точки перехода
Параметр матрицы формата : Выборочная
Идентификатор кодека : XVID
Идентификатор кодека/Подсказка : XviD
Продолжительность : 1 ч. 17 м.
Битрейт : 2110 Кбит/сек
Ширина : 704 пикселя
Высота : 384 пикселя
Соотношение сторон : 1,85:1
Частота кадров : 25,000 кадров/сек
Цветовое пространство : YUV
Субдискретизация насыщенности : 4:2:0
Битовая глубина : 8 бит
Тип развёртки : Прогрессивная
Метод сжатия : С потерями
Бит/(Пиксели*Кадры) : 0.312
Размер потока : 1,14 Гбайт (78%)
Библиотека кодирования : XviD 65
Аудио #1
Идентификатор : 1
Формат : AC-3
Формат/Информация : Audio Coding 3
Расширение режима : CM (complete main)
Параметр Endianness формата : Big
Идентификатор кодека : 2000
Продолжительность : 1 ч. 17 м.
Вид битрейта : Постоянный
Битрейт : 192 Кбит/сек
Каналы : 1 канал
Расположение каналов : Front: C
Частота : 48,0 КГц
Частота кадров : 31,250 кадров/сек (1536 spf)
Битовая глубина : 16 бит
Метод сжатия : С потерями
Размер потока : 107 Мбайт (7%)
Выравнивание : Разделение по промежуткам
Продолжительность промежутка : 40 мс. (1,00 видеокадр)
Время предзагрузки промежутка : 500 мс.
Аудио #2
Идентификатор : 2
Формат : AC-3
Формат/Информация : Audio Coding 3
Расширение режима : CM (complete main)
Параметр Endianness формата : Big
Идентификатор кодека : 2000
Продолжительность : 1 ч. 17 м.
Вид битрейта : Постоянный
Битрейт : 384 Кбит/сек
Каналы : 6 каналов
Расположение каналов : Front: L C R, Side: L R, LFE
Частота : 48,0 КГц
Частота кадров : 31,250 кадров/сек (1536 spf)
Битовая глубина : 16 бит
Метод сжатия : С потерями
Размер потока : 213 Мбайт (14%)
Выравнивание : Разделение по промежуткам
Продолжительность промежутка : 40 мс. (1,00 видеокадр)
Время предзагрузки промежутка : 500 мс.

Скриншоты