Покахонтас / Pocahontas
«Two different worlds. One true love»
Страна: США
Жанр: Мультфильм
Продолжительность: 01:21:08
Год выпуска: 1995
Перевод: Авторский (одноголосый закадровый) Василий Горчаков
Оригинальная аудиодорожка: английский
Русские субтитры: нет
Режиссёр: Майк Гэбриел / Mike Gabriel, Эрик Голдберг / Eric Goldberg
Роли озвучивали: Мэл Гибсон, Кристиан Бэйл, Джуди Кун, Ирен Бедард, Дэвид Огден Стайерз, Джон Кассир, Рассел Минс, Линда Хант, Дэнни Манн, Билли Коннолли
Описание: Из Европы отправляется в Новый Свет корабль с нашим героем Джоном Смитом. Экипаж, как объясняет капитан, плывет навстречу приключениям, успеху, богатству.
Но сам капитан намерен найти там нечто вполне определенное — золото. А живут в Америке индейцы, и рассказ пойдет о благородной принцессе Покахонтас.
Доп. информация: Дорожка с В. Горчаковым cинхронизирована и наложена ale_x2008 при помощи Sony Vegas и VirtualDubMod
За оцифрованную с VHS дорожку благодарим - Raptorio Rio

Релиз
Семпл: https://yadi.sk/i/GpwVVmwO37VPta
Качество: BDRip
Формат: AVI
Видео: 720x400 (1.80:1), 23.976 fps, XviD build 64 ~2105 kbps avg, 0.30 bit/pixel
Аудио: AC3 Dolby Digital, 48000Hz, 2/0 (L,R) ch (mono), 192.00 kbps avg
Аудио 2: AC3 Dolby Digital, 48000Hz, 2/0 (L,R) ch, 192.00 kbps avg
Субтитры: отсутствуют

Подробные технические данные

Покахонтас - Pocahontas 1995 [by ale_x2008] fix.avi
Format : AVI
Format/Info : Audio Video Interleave
File size : 1.42 GiB
Duration : 1 h 21 min
Overall bit rate : 2 504 kb/s
Movie name : Покахонтас / Pocahontas (1995) BDRip
Director : kingsize87
Writing application : VirtualDubMod 1.5.10.2 (build 2540/release)
Writing library : VirtualDubMod build 2540/release
Copyright : ale_x2008 | Edich2
Comment : RuTracker.org
Video
ID : 0
Format : MPEG-4 Visual
Format profile : Advanced Simple@L5
Format settings, BVOP : 1
Format settings, QPel : No
Format settings, GMC : No warppoints
Format settings, Matrix : Custom
Codec ID : XVID
Codec ID/Hint : XviD
Duration : 1 h 21 min
Bit rate : 2 106 kb/s
Width : 720 pixels
Height : 400 pixels
Display aspect ratio : 16:9
Frame rate : 23.976 (23976/1000) FPS
Color space : YUV
Chroma subsampling : 4:2:0
Bit depth : 8 bits
Scan type : Progressive
Compression mode : Lossy
Bits/(Pixel*Frame) : 0.305
Stream size : 1.19 GiB (84%)
Writing library : XviD 64
Audio #1
ID : 1
Format : AC-3
Format/Info : Audio Coding 3
Mode extension : CM (complete main)
Format settings, Endianness : Big
Codec ID : 2000
Duration : 1 h 21 min
Bit rate mode : Constant
Bit rate : 192 kb/s
Channel(s) : 2 channels
Channel positions : Front: L R
Sampling rate : 48.0 kHz
Frame rate : 31.250 FPS (1536 spf)
Compression mode : Lossy
Stream size : 111 MiB (8%)
Alignment : Split accross interleaves
Interleave, duration : 42 ms (1.00 video frame)
Interleave, preload duratio : 500 ms
Audio #2
ID : 2
Format : AC-3
Format/Info : Audio Coding 3
Mode extension : CM (complete main)
Format settings, Endianness : Big
Codec ID : 2000
Duration : 1 h 21 min
Bit rate mode : Constant
Bit rate : 192 kb/s
Channel(s) : 2 channels
Channel positions : Front: L R
Sampling rate : 48.0 kHz
Frame rate : 31.250 FPS (1536 spf)
Compression mode : Lossy
Stream size : 111 MiB (8%)
Alignment : Split accross interleaves
Interleave, duration : 42 ms (1.00 video frame)
Interleave, preload duratio : 500 ms

Скриншоты